Login
Username:
Password:
[Signup]
[Recover Account]


Browse Torrents

Poll


You must be logged in to view polls



Latest Torrents
18+ My Wife.s Sist...
- [Size: 713.31 MB]

Seth.Meyers.2019.0...
- [Size: 583.74 MB]

Gypsy.S01.720p.WEB...
- [Size: 4.80 GB]

Aquaman.2018.HC.HD...
- [Size: 1.19 GB]

Seth.Meyers.2019.0...
- [Size: 580.33 MB]


Torrent Details For "Carry On Jatta 2 2018 x264 720p HD Esub Punjabi GOPISAHI"

Carry On Jatta 2 2018 x264 720p HD Esub Punjabi GOPISAHI

Download this torrent | Magnet Download
Health:
Seeds: 153
Leechers: 31
Completed: 564 
Last Checked: 14-01-2019 09:32:02
External Torrent
Update Stats



Images Host

Poster
No poster


Watch-Free-HD     Download

Details
Name:Carry On Jatta 2 2018 x264 720p HD Esub Punjabi GOPISAHI
Description:
 http://www.gopisahi.pw/

Format                         : Matroska
Format version                 : Version 4 / Version 2
File size                      : 843 MiB
Duration                       : 2 h 27 min
Overall bit rate               : 797 kb/s
Movie name                     : Carry On Jatta 2 2018 GOPISAHI

Video
Format                         : AVC
Duration                       : 2 h 27 min
Bit rate                       : 699 kb/s
Width                          : 1 280 pixels
Height                         : 528 pixels
Display aspect ratio           : 2.40:1
Frame rate mode                : Constant
Frame rate                     : 24.000 FPS
Color space                    : YUV
Chroma subsampling             : 4:2:0
Bit depth                      : 8 bits
Scan type                      : Progressive
Bits/(Pixel*Frame)             : 0.043
Stream size                    : 739 MiB (88%)
Title                          : GOPISAHI

Audio
Format                         : AAC
Duration                       : 2 h 27 min
Bit rate                       : 96.0 kb/s
Channel(s)                     : 2 channels
Channel positions              : Front: L R
Sampling rate                  : 48.0 kHz
Frame rate                     : 46.875 FPS (1024 SPF)
Compression mode               : Lossy
Delay relative to video        : -21 ms
Stream size                    : 102 MiB (12%)
Title                          : GOPISAHI
Language                       : Panjabi

Text
Language                       : English


Category:Movies > Punjabi
Lang:Punjabi
Total Size:843.20 MB
Info Hash:abfee9f891e8dbaed1aabd4ad43be62ef68f11bc
Added By:gopisahi
Date Added:11-01-2019 05:52:20
Downloads:169

Ratings:Not Yet Rated (Log in to rate it)


Tracker:
udp://tracker.coppersurfer.tk:6969/announce


File List: 


Comments

No comments still posted

Top
Copyright 2018 DownloadHD -|- Page Generated In 0.653344 secs.
-|- RSS Feed -|- Feed Info