Login
Username:
Password:
[Signup]
[Recover Account]


Browse Torrents

Poll


You must be logged in to view polls



Latest Torrents
18+ My Wife.s Sist...
- [Size: 713.31 MB]

Seth.Meyers.2019.0...
- [Size: 583.74 MB]

Gypsy.S01.720p.WEB...
- [Size: 4.80 GB]

Aquaman.2018.HC.HD...
- [Size: 1.19 GB]

Seth.Meyers.2019.0...
- [Size: 580.33 MB]


Torrent Details For "Afsar 2018 x264 720p HD Esub Punjabi GOPISAHI"

Afsar 2018 x264 720p HD Esub Punjabi GOPISAHI

Download this torrent | Magnet Download
Health:
Seeds: 84
Leechers: 135
Completed: 140 
Last Checked: 11-01-2019 18:00:50
External Torrent
Update Stats



Images Host

Poster
No poster


Watch-Free-HD     Download

Details
Name:Afsar 2018 x264 720p HD Esub Punjabi GOPISAHI
Description:
 http://www.gopisahi.pw/
Format                         : Matroska

Format version                 : Version 4 / Version 2

File size                      : 722 MiB

Duration                       : 2 h 6 min

Overall bit rate               : 797 kb/s

Movie name                     : Afsar 2018 GOPISAHI


Video

Format                         : AVC

Format/Info                    : Advanced Video Codes

Codec ID                       : V_MPEG4/ISO/AVC

Duration                       : 2 h 6 min

Bit rate                       : 699 kb/s

Width                          : 1 280 pixels

Height                         : 544 pixels

Display aspect ratio           : 2.35:1

Frame rate mode                : Constant

Frame rate                     : 24.000 FPS

Color space                    : YUV

Chroma subsampling             : 4:2:0

Bit depth                      : 8 bits

Scan type                      : Progressive

Bits/(Pixel*Frame)             : 0.042

Stream size                    : 634 MiB (88%)

Title                          : GOPISAHI


Audio

Format                         : AAC

Duration                       : 2 h 6 min

Bit rate                       : 96.0 kb/s

Channel(s)                     : 2 channels

Channel positions              : Front: L R

Sampling rate                  : 48.0 kHz

Frame rate                     : 46.875 FPS (1024 SPF)

Compression mode               : Lossy

Delay relative to video        : -21 ms

Stream size                    : 86.6 MiB (12%)

Title                          : GOPISAHI

Language                       : Panjabi


Text

Language                       : English


Category:Movies > Punjabi
Lang:Punjabi
Total Size:722.39 MB
Info Hash:5a0311a6a9844de663575d1fc649b1ab7bdb233e
Added By:gopisahi
Date Added:11-01-2019 05:15:53
Downloads:84

Ratings:Not Yet Rated (Log in to rate it)


Tracker:
udp://tracker.coppersurfer.tk:6969/announce


File List: 


Comments

No comments still posted

Top
Copyright 2018 DownloadHD -|- Page Generated In 0.571713 secs.
-|- RSS Feed -|- Feed Info