Login
Username:
Password:
[Signup]
[Recover Account]


Browse Torrents

Poll


You must be logged in to view polls



Latest Torrents
Grinch.2018.HDRip....
- [Size: 707.82 MB]

Magnum.P.I.S01E12....
- [Size: 1.87 GB]

Black.Lightning.S0...
- [Size: 2.39 GB]

Bohemian.Rhapsody....
- [Size: 4.65 GB]

Bohemian.Rhapsody....
- [Size: 1.38 GB]


Torrent Details For "Holmes and Watson 2018 720p HDCAM.LLG"

Holmes and Watson 2018 720p HDCAM.LLG

Download this torrent | Magnet Download
Health:
Seeds: 17
Leechers: 147
Completed:
Last Checked: 09-01-2019 18:37:17
External Torrent
Update Stats



Images Host

Poster
No poster


iMDB
Title: Holmes & Watson
Year: 2018
Runtime: 90 minutes
Votes: 6015
Rating: 3.4/10
Language: English
Tagline: They don't have a clue.
Director: Etan Cohen
Writing By: Etan Cohen,Arthur Conan Doyle,
Produced By: Jamie Christopher,Jessica Elbaum,Will Ferrell,Jonah Goldfinger,Chris Henchy,Adam McKay,Jimmy Miller,David Mimran,M. Riley,Jordan Schur,Clayton Townsend,
Music: Christophe Beck Mark Mothersbaugh
Cast:
Lauren Lapkus as Millie
Will Ferrell as Holmes
Kelly Macdonald as Mrs. Hudson
John C. Reilly as Watson
Rebecca Hall as Dr. Grace Hart
Ralph Fiennes as Moriarty
Noah Jupe as Doxy
Steve Coogan as Gustav Klinger
Hugh Laurie as Mycroft
Pam Ferris as Queen Victoria
Trailers:
NOW PLAYING
Trailer #1


Watch-Free-HD     Download

Details
Name:Holmes and Watson 2018 720p HDCAM.LLG
Description:

Quote:



******************************Thumbnail:**********************

 

******************************Screenshots:********************

 Screenshot 1

 Screenshot 2

 Screenshot 3

 Screenshot 4

 Screenshot 5

 Screenshot 6

 Screenshot 7

 Screenshot 8

 Screenshot 9

 Screenshot 0

******************************************************

Holmes and Watson 2018 720p HDCAM.LLG.mp4
Format                                   : MPEG-4
Format profile                           : Base Media
Codec ID                                 : isom (isom/iso2/avc1/mp41)
File size                                : 1.61 GiB
Duration                                 : 1 h 25 min
Overall bit rate mode                    : Variable
Overall bit rate                         : 2 683 kb/s


Video
ID                                       : 1
Format                                   : AVC
Format/Info                              : Advanced Video Codec
Format profile                           : [email protected]
Format settings                          : CABAC / 1 Ref Frames
Format settings, CABAC                   : Yes
Format settings, RefFrames               : 1 frame
Codec ID                                 : avc1
Codec ID/Info                            : Advanced Video Coding
Duration                                 : 1 h 25 min
Bit rate mode                            : Variable
Bit rate                                 : 2 488 kb/s
Maximum bit rate                         : 7 500 kb/s
Width                                    : 1 280 pixels
Height                                   : 536 pixels
Display aspect ratio                     : 2.40:1
Frame rate mode                          : Constant
Frame rate                               : 29.970 (29970/1000) FPS
Original frame rate                      : 29.970 (30000/1001) FPS
Color space                              : YUV
Chroma subsampling                       : 4:2:0
Bit depth                                : 8 bits
Scan type                                : Progressive
Bits/(Pixel*Frame)                       : 0.121
Stream size                              : 1.49 GiB (93%)


Audio
ID                                       : 2
Format                                   : AC-3
Format/Info                              : Audio Coding 3
Commercial name                          : Dolby Digital
Codec ID                                 : ac-3
Duration                                 : 1 h 25 min
Bit rate mode                            : Constant
Bit rate                                 : 192 kb/s
Channel(s)                               : 2 channels
Channel layout                           : L R
Sampling rate                            : 48.0 kHz
Frame rate                               : 31.250 FPS (1536 SPF)
Bit depth                                : 16 bits
Compression mode                         : Lossy
Stream size                              : 118 MiB (7%)
Service kind                             : Complete Main
Default                                  : Yes
Alternate group                          : 1





******************************************************


Category:Movies > Pre-Releases
Lang:English  English
Total Size:1.62 GB
Info Hash:b5d99b14d4acc68342df1cb17376024ecc3560db
Added By:LifeLongg
Date Added:09-01-2019 18:00:43
Downloads:54

Ratings:Not Yet Rated (Log in to rate it)


Tracker:
udp://tracker.openbittorrent.com:80/announce


File List: 


Comments

No comments still posted

Top
Copyright 2018 DownloadHD -|- Page Generated In 0.754797 secs.
-|- RSS Feed -|- Feed Info