Login
Username:
Password:
[Signup]
[Recover Account]


Browse Torrents

Poll


You must be logged in to view polls



Latest Torrents
Best.Friends.Volum...
- [Size: 1.63 GB]

Stephen.Colbert.20...
- [Size: 917.25 MB]

Stephen.Colbert.20...
- [Size: 649.14 MB]

Killer.High.2018.A...
- [Size: 976.65 MB]

Killer.High.2018.1...
- [Size: 4.94 GB]


Torrent Details For "Bumblebee .2018. 720p HDTS.Rip x264.ENG.AAC.LLG"

Bumblebee .2018. 720p HDTS.Rip x264.ENG.AAC.LLG

Download this torrent | Magnet Download
Health:
Seeds: 899
Leechers: 252
Completed: 7,218 
Last Checked: 06-01-2019 21:02:18
External Torrent
Update Stats



Images Host

Poster
No poster


iMDB
Title: Bumblebee
Year: 2018
Runtime: 113 minutes
Votes: 778
Rating: 7.1/10
Language: English
Tagline: Every Hero Has a Beginning
Director: Travis Knight
Writing By: Christina Hodson,Christina Hodson,
Produced By: Ron Ames,Michael Bay,Chris Brigham,Tom DeSanto,Lorenzo di Bonaventura,Brian Goldner,Jonathan Hook,Don Murphy,Steven Spielberg,Mark Vahradian,
Music: Dario Marianelli
Cast:
Hailee Steinfeld as Charlie Watson
Dylan O'Brien as Bumblebee
Justin Theroux as Dropkick
John Cena as Agent Burns
Angela Bassett as Shatter
Pamela Adlon as
Megyn Price as Amber
Grey Griffin as Arcee
Peter Cullen as Optimus Prime
Kenneth Choi as
Trailers:
In Theaters Thursday
In Theaters December 21
Official Trailer
Trailer #2
Official Teaser


Watch-Free-HD     Download

Details
Name:Bumblebee .2018. 720p HDTS.Rip x264.ENG.AAC.LLG
Description:

Quote:



******************************Thumbnail:**********************

 

******************************Screenshots:********************

 Screenshot 1

 Screenshot 2

 Screenshot 3

 Screenshot 4

 Screenshot 5

 Screenshot 6

 Screenshot 7

 Screenshot 8

 Screenshot 9

 Screenshot 0

******************************************************

Bumblebee 2018 720p HDTS.Rip x264.ENG.AAC.LLG.mkv
Format                                   : Matroska
Format version                           : Version 4
File size                                : 1.01 GiB
Duration                                 : 1 h 48 min
Overall bit rate mode                    : Variable
Overall bit rate                         : 1 338 kb/s

Video
ID                                       : 1
Format                                   : AVC
Format/Info                              : Advanced Video Codec
Format profile                           : [email protected]
Format settings                          : CABAC / 1 Ref Frames
Format settings, CABAC                   : Yes
Format settings, RefFrames               : 1 frame
Codec ID                                 : V_MPEG4/ISO/AVC
Duration                                 : 1 h 48 min
Bit rate mode                            : Variable
Bit rate                                 : 1 207 kb/s
Maximum bit rate                         : 3 600 kb/s
Width                                    : 1 016 pixels
Height                                   : 544 pixels
Display aspect ratio                     : 1.85:1
Frame rate mode                          : Constant
Frame rate                               : 29.970 (29970/1000) FPS
Original frame rate                      : 29.970 (30000/1001) FPS
Color space                              : YUV
Chroma subsampling                       : 4:2:0
Bit depth                                : 8 bits
Scan type                                : Progressive
Bits/(Pixel*Frame)                       : 0.073
Stream size                              : 934 MiB (90%)
Default                                  : Yes
Forced                                   : No

Audio
ID                                       : 2
Format                                   : AAC LC
Codec ID                                 : A_AAC-2
Duration                                 : 1 h 48 min
Bit rate                                 : 128 kb/s
Channel(s)                               : 2 channels
Channel layout                           : L R
Sampling rate                            : 48.0 kHz
Frame rate                               : 46.875 FPS (1024 SPF)
Compression mode                         : Lossy
Delay relative to video                  : -21 ms
Stream size                              : 99.1 MiB (10%)
Title                                    : LLG
Language                                 : English
Default                                  : Yes
Forced                                   : No


******************************************************


Category:Movies > Pre-Releases
Lang:English  English
Total Size:1.02 GB
Info Hash:1bf7adaa00d92268466014e0efce4a84551799ec
Added By:LifeLongg
Date Added:05-01-2019 12:58:15
Downloads:107

Ratings:Not Yet Rated (Log in to rate it)


Tracker:
udp://tracker.openbittorrent.com:80/announce


File List: 


Comments

No comments still posted

Top
Copyright 2018 DownloadHD -|- Page Generated In 3.077578 secs.
-|- RSS Feed -|- Feed Info