Login
Username:
Password:
[Signup]
[Recover Account]


Browse Torrents

Poll


You must be logged in to view polls



Latest Torrents
Robin.Hood.2018.HC...
- [Size: 1.38 GB]

Best.Friends.Volum...
- [Size: 4.41 GB]

Best.Friends.Volum...
- [Size: 4.41 GB]

Robin.Hood.2018.10...
- [Size: 3.37 GB]

Bohemian.Rhapsody....
- [Size: 4.65 GB]


Torrent Details For "Mulshi Pattern 2018 Censor Board Copy Marathi Untouched 720p AVC AAC - Telly Exclusive"

Mulshi Pattern 2018 Censor Board Copy Marathi Untouched 720p AVC AAC - Telly Exclusive

Download this torrent | Magnet Download
Health:
Seeds: 650
Leechers: 109
Completed: 12,513 
Last Checked: 17-01-2019 15:48:08
External Torrent
Update Stats



Images Host

Poster
No poster


Watch-Free-HD     Download

Details
Name:Mulshi Pattern 2018 Censor Board Copy Marathi Untouched 720p AVC AAC - Telly Exclusive
Description:


Mulshi Pattern 2018 Censor Board Copy Marathi Untouched 720p AVC AAC - Telly Exclusive

Mediainfo:-
Format                      : MPEG-4
Format profile              : Base Media / Version 2
Codec ID                    : mp42 (isom/mp42)
File size                   : 1.71 GiB
Duration                    : 2 h 24 min
Overall bit rate mode       : Variable
Overall bit rate            : 1 691 kb/s
Encoded date                : UTC 2019-01-04 03:34:55
Tagged date                 : UTC 2019-01-04 03:34:55
gsst                        : 0
gstd                        : 8685609

Video
ID                          : 1
Format                      : AVC
Format/Info                 : Advanced Video Codec
Format profile              : [email protected]
Format settings             : CABAC / 3 Ref Frames
Format settings, CABAC      : Yes
Format settings, ReFrames   : 3 frames
Codec ID                    : avc1
Codec ID/Info               : Advanced Video Coding
Duration                    : 2 h 24 min
Bit rate                    : 1 559 kb/s
Width                       : 1 280 pixels
Height                      : 720 pixels
Display aspect ratio        : 16:9
Frame rate mode             : Constant
Frame rate                  : 24.000 FPS
Color space                 : YUV
Chroma subsampling          : 4:2:0
Bit depth                   : 8 bits
Scan type                   : Progressive
Bits/(Pixel*Frame)          : 0.071
Stream size                 : 1.58 GiB (92%)
Title                       : ISO Media file produced by Google Inc. Created on: 01/03/2019.
Encoded date                : UTC 2019-01-04 03:34:55
Tagged date                 : UTC 2019-01-04 03:34:55
Color range                 : Limited
Color primaries             : BT.709
Transfer characteristics    : BT.709
Matrix coefficients         : BT.709
Codec configuration box     : avcC

Audio
ID                          : 2
Format                      : AAC LC
Format/Info                 : Advanced Audio Codec Low Complexity
Codec ID                    : mp4a-40-2
Duration                    : 2 h 24 min
Bit rate mode               : Variable
Bit rate                    : 128 kb/s
Channel(s)                  : 2 channels
Channel layout              : L R
Sampling rate               : 44.1 kHz
Frame rate                  : 43.066 FPS (1024 SPF)
Compression mode            : Lossy
Stream size                 : 133 MiB (8%)
Title                       : ISO Media file produced by Google Inc. Created on: 01/03/2019.
Language                    : English
Encoded date                : UTC 2019-01-04 03:34:55
Tagged date                 : UTC 2019-01-04 03:34:55



 
 
 
 

Category:Movies > Pre-Releases
Lang:Marathi
Total Size:1.71 GB
Info Hash:6992cca5b04280565d573fbe407bfb09dc31ca2c
Added By:Anonymous
Date Added:04-01-2019 10:44:42
Downloads:1,288

Ratings:Not Yet Rated (Log in to rate it)


Tracker:
udp://tracker.coppersurfer.tk:6969/announce


File List: 


Comments

No comments still posted

Top
Copyright 2018 DownloadHD -|- Page Generated In 0.723577 secs.
-|- RSS Feed -|- Feed Info