Login
Username:
Password:
[Signup]
[Recover Account]


Browse Torrents

Poll


You must be logged in to view polls



Latest Torrents
Botched.S05E02.Sha...
- [Size: 312.29 MB]

Top.Chef.S16E02.Bo...
- [Size: 477.96 MB]

Food-Fact.or.Ficti...
- [Size: 225.38 MB]

Top.Chef.S16E02.Bo...
- [Size: 469.63 MB]

Floribama.Shore.S0...
- [Size: 320.52 MB]


Torrent Details For " Vella Raja (2018) Complete S01 720p HDRip [Hindi + Tamil] x264 E-Sub ~TMV"

Vella Raja (2018) Complete S01 720p HDRip [Hindi + Tamil] x264 E-Sub ~TMV

Download this torrent | Magnet Download
Health:
Seeds: 25
Leechers: 97
Completed: 94 
Last Checked: 06-12-2018 18:04:49
External Torrent
Update Stats



Images Host

Poster


iMDB
Title: "Vella Raja" The Calling
Year: 2018
Director: Guhan Senniappan

Produced By: S.R. Prabhu,S.R. Prakashbabu,
Cast:
Abi ">Abi as
Akash ">Akash as
A.R. Bala as
Yuthan Balaji as
Gayathrie as
Kalki as
T.M. Karthik ">T.M. Karthik as
Manoharan as
Parvathy Nair as
Ponmudi ">Ponmudi as


Watch-Free-HD     Download

Details
Name: Vella Raja (2018) Complete S01 720p HDRip [Hindi + Tamil] x264 E-Sub ~TMV
Description:
Vella Raja 2018 Complete S01 720p HDRip [Hindi + Tamil] x264 E-Sub ~TMV



 http://www.crazyworld4u.cf

General
Format                                   : Matroska
Format version                           : Version 4
File size                                : 1.77 GiB
Duration                                 : 3 h 59 min
Overall bit rate                         : 1 059 kb/s

Video
ID                                       : 1
Format                                   : AVC
Format/Info                              : Advanced Video Codec
Format profile                           : [email protected]
Format settings                          : CABAC / 4 Ref Frames
Format settings, CABAC                   : Yes
Format settings, ReFrames                : 4 frames
Codec ID                                 : V_MPEG4/ISO/AVC
Duration                                 : 26 min 45 s
Bit rate                                 : 826 kb/s
Width                                    : 1 280 pixels
Height                                   : 720 pixels
Display aspect ratio                     : 16:9
Frame rate mode                          : Constant
Frame rate                               : 24.000 FPS
Color space                              : YUV
Chroma subsampling                       : 4:2:0
Bit depth                                : 8 bits
Scan type                                : Progressive
Bits/(Pixel*Frame)                       : 0.037
Stream size                              : 154 MiB (8%)
Writing library                          : x264 core 155 r2901 7d0ff22
Language                                 : Tamil
Default                                  : Yes
Forced                                   : No

Audio #1
ID                                       : 2
Format                                   : AAC LC
Format/Info                              : Advanced Audio Codec Low Complexity
Codec ID                                 : A_AAC-2
Duration                                 : 26 min 45 s
Bit rate                                 : 196 kb/s
Channel(s)                               : 2 channels
Channel layout                           : L R
Sampling rate                            : 48.0 kHz
Frame rate                               : 46.875 FPS (1024 SPF)
Compression mode                         : Lossy
Stream size                              : 37.5 MiB (2%)
Language                                 : Tamil
Default                                  : Yes
Forced                                   : No

Audio #2
ID                                       : 3
Format                                   : AAC LC
Format/Info                              : Advanced Audio Codec Low Complexity
Codec ID                                 : A_AAC-2
Duration                                 : 26 min 45 s
Bit rate                                 : 125 kb/s
Channel(s)                               : 2 channels
Channel layout                           : L R
Sampling rate                            : 48.0 kHz
Frame rate                               : 46.875 FPS (1024 SPF)
Compression mode                         : Lossy
Stream size                              : 24.0 MiB (1%)
Language                                 : Hindi
Default                                  : No
Forced                                   : No

Text
ID                                       : 4
Format                                   : UTF-8
Codec ID                                 : S_TEXT/UTF8
Codec ID/Info                            : UTF-8 Plain Text
Duration                                 : 24 min 52 s
Bit rate                                 : 66 b/s
Count of elements                        : 413
Stream size                              : 12.2 KiB (0%)
Language                                 : English
Default                                  : No
Forced                                   : No

         
Category:TV > WEB-HD
Lang:Hindi
Total Size:1.77 GB
Info Hash:ac06d6740a52b8a54243c41d52db6515d100082c
Added By:Shrawankk
Date Added:06-12-2018 17:51:04
Downloads:104

Ratings:Not Yet Rated (Log in to rate it)


Tracker:
udp://tracker.openbittorrent.com:80/announce


File List: 


Comments

No comments still posted

Top
Copyright 2018 DownloadHD -|- Page Generated In 0.676398 secs.
-|- RSS Feed -|- Feed Info